<?xml version="1.0" standalone="no"?>
<!DOCTYPE svg PUBLIC "-//W3C//DTD SVG 1.1//EN" "http://www.w3.org/Graphics/SVG/1.1/DTD/svg11.dtd" >
<svg xmlns="http://www.w3.org/2000/svg">
<metadata>Generated by IcoMoon</metadata>
<defs>
<font id="Uni-Bonn-official" horiz-adv-x="1024">
<font-face units-per-em="1024" ascent="960" descent="-64" />
<missing-glyph horiz-adv-x="1024" />
<glyph unicode="&#x20;" horiz-adv-x="512" d="" />
<glyph unicode="&#xe900;" glyph-name="fakten-zahlen" d="M1008 57.6h-976v780.8c0 9.6-6.4 16-16 16s-16-6.4-16-16v-780.8c0-19.2 16-32 32-32h976c9.6 0 16 6.4 16 16s-6.4 16-16 16zM166.4 108.8h185.6c19.2 0 32 16 32 32v320c0 19.2-16 32-32 32h-185.6c-19.2 0-32-16-32-32v-320c0-16 16-32 32-32zM166.4 460.8c0 0 0 3.2 0 0h185.6v-320h-185.6v320zM486.4 108.8h185.6c19.2 0 32 16 32 32v505.6c0 19.2-16 32-32 32h-185.6c-19.2 0-32-16-32-32v-502.4c0-19.2 12.8-35.2 32-35.2zM486.4 646.4c0 0 0 0 0 0h185.6v-505.6h-185.6v505.6zM806.4 108.8h185.6c19.2 0 32 16 32 32v691.2c0 19.2-16 32-32 32h-185.6c-19.2 0-32-16-32-32v-688c0-19.2 12.8-35.2 32-35.2zM806.4 832c0 0 0 0 0 0h185.6v-688h-185.6v688z" />
<glyph unicode="&#xe901;" glyph-name="forschung" d="M870.4 25.6l-240 611.2v227.2l48 57.6v22.4c0 9.6-6.4 16-16 16h-284.8c-9.6 0-16-6.4-16-16v-25.6l48-54.4v-227.2l-249.6-608c0-9.6-3.2-19.2-3.2-28.8 0-35.2 28.8-64 64-64h588.8c9.6 0 16 0 22.4 3.2 35.2 16 51.2 51.2 38.4 86.4zM441.6 624c0 3.2 3.2 6.4 3.2 12.8v227.2c0 6.4-3.2 16-6.4 22.4l-41.6 41.6h249.6l-44.8-48c-3.2-6.4-3.2-9.6-3.2-16v-227.2c0-3.2 0-9.6 3.2-12.8l57.6-144h-275.2l57.6 144zM841.6-12.8c-3.2-9.6-9.6-12.8-19.2-16-3.2 0-6.4-3.2-12.8-3.2h-585.6c-19.2 0-32 16-32 32 0 3.2 0 9.6 3.2 12.8l32 76.8c0 0 0 0 3.2 0h22.4c9.6 0 16 6.4 16 16s-6.4 16-16 16h-16l25.6 67.2c0 0 0 0 0 0h22.4c9.6 0 16 6.4 16 16s-6.4 16-16 16h-9.6l25.6 67.2c0 0 0 0 3.2 0h22.4c9.6 0 16 6.4 16 16s-6.4 16-16 16h-9.6l54.4 131.2h300.8l172.8-435.2c0-9.6 0-19.2-3.2-28.8zM675.2 323.2c-3.2 9.6-12.8 12.8-19.2 9.6-9.6-3.2-12.8-12.8-9.6-19.2l89.6-227.2c3.2-6.4 9.6-9.6 16-9.6 3.2 0 3.2 0 6.4 0 9.6 3.2 12.8 12.8 9.6 19.2l-92.8 227.2z" />
<glyph unicode="&#xe902;" glyph-name="informationen" d="M512 960c-281.6 0-512-230.4-512-512s230.4-512 512-512 512 230.4 512 512-230.4 512-512 512zM512-32c-265.6 0-480 214.4-480 480s214.4 480 480 480 480-214.4 480-480c0-265.6-214.4-480-480-480zM518.4 556.8c-38.4 0-70.4-32-70.4-70.4v-284.8c0-38.4 32-70.4 70.4-70.4s70.4 32 70.4 70.4v284.8c3.2 41.6-28.8 70.4-70.4 70.4zM560 204.8c0-22.4-16-38.4-38.4-38.4s-41.6 16-41.6 38.4v284.8c0 22.4 16 38.4 38.4 38.4s38.4-16 38.4-38.4v-284.8zM518.4 787.2c-44.8 0-80-35.2-80-80s35.2-80 80-80 80 35.2 80 80c0 44.8-35.2 80-80 80zM518.4 662.4c-25.6 0-48 22.4-48 48s22.4 48 48 48 48-22.4 48-48-19.2-48-48-48z" />
<glyph unicode="&#xe903;" glyph-name="orientierung" d="M512 960c-281.6 0-512-230.4-512-512s230.4-512 512-512 512 230.4 512 512-230.4 512-512 512zM528-32v32c0 9.6-6.4 16-16 16s-16-6.4-16-16v-32c-252.8 9.6-454.4 211.2-464 464h32c9.6 0 16 6.4 16 16s-6.4 16-16 16h-32c9.6 252.8 211.2 454.4 464 464v-32c0-9.6 6.4-16 16-16s16 6.4 16 16v32c252.8-9.6 454.4-211.2 464-464h-32c-9.6 0-16-6.4-16-16s6.4-16 16-16h32c-9.6-252.8-211.2-454.4-464-464zM684.8 636.8c-3.2 0-6.4 0-6.4-3.2l-240-118.4-118.4-246.4c-3.2-3.2-3.2-9.6 0-16s9.6-9.6 16-9.6c3.2 0 6.4 0 6.4 3.2l252.8 128 105.6 240c3.2 3.2 3.2 9.6 0 12.8-3.2 6.4-9.6 9.6-16 9.6zM451.2 470.4l96-83.2-182.4-89.6 86.4 172.8zM576 406.4l-102.4 89.6 182.4 89.6-80-179.2z" />
<glyph unicode="&#xe904;" glyph-name="transfer" d="M339.2 470.4c0 0 0 0 0 0 0 9.6 6.4 16 16 16h99.2c3.2 0 6.4 0 9.6 3.2 6.4 6.4 9.6 16 3.2 22.4l-217.6 313.6c0 0-3.2 3.2-3.2 3.2-3.2 0-6.4 3.2-9.6 3.2-6.4 0-12.8-3.2-12.8-6.4l-220.8-310.4c-3.2-3.2-3.2-6.4-3.2-9.6 0-9.6 6.4-16 16-16h102.4c9.6 0 16-6.4 16-16 3.2-163.2 73.6-284.8 204.8-368 0 0 0 0 0 0 6.4 0 108.8 176 102.4 179.2-60.8 41.6-96 102.4-102.4 185.6zM332.8 150.4c-108.8 73.6-163.2 179.2-166.4 323.2 0 25.6-22.4 48-48 48h-70.4l188.8 268.8 188.8-268.8h-67.2c-12.8 0-25.6-6.4-35.2-12.8-9.6-9.6-12.8-22.4-12.8-35.2v-3.2c6.4-83.2 38.4-147.2 96-195.2-19.2-32-54.4-92.8-73.6-124.8zM1024 579.2l-160 339.2c0 3.2-3.2 6.4-6.4 6.4-3.2 3.2-6.4 3.2-9.6 3.2-6.4 0-9.6-3.2-12.8-9.6l-51.2-86.4c-3.2-6.4-9.6-9.6-12.8-9.6s-6.4 0-6.4 3.2c-73.6 38.4-147.2 60.8-217.6 60.8s-137.6-19.2-204.8-54.4c-6.4-3.2 99.2-176 102.4-176 0 0 0 0 0 0 32 16 67.2 25.6 102.4 25.6 38.4 0 73.6-9.6 112-28.8 0 0 0 0 0 0 6.4-3.2 9.6-16 6.4-22.4l-48-83.2c-3.2-3.2-3.2-6.4-3.2-9.6 0-9.6 6.4-16 16-16 0 0 0 0 0 0l380.8 35.2c3.2 0 3.2 0 6.4 0 6.4 3.2 9.6 12.8 6.4 22.4zM656 556.8l32 57.6c6.4 9.6 9.6 25.6 6.4 35.2-3.2 12.8-9.6 22.4-22.4 28.8h-3.2c-41.6 22.4-86.4 32-128 32-32 0-60.8-6.4-89.6-16-19.2 28.8-54.4 89.6-73.6 121.6 54.4 25.6 108.8 38.4 163.2 38.4 67.2 0 134.4-19.2 201.6-54.4 6.4-3.2 16-6.4 22.4-6.4 16 0 32 9.6 41.6 22.4l35.2 60.8 137.6-291.2-323.2-28.8zM880 473.6c-54.4 0-112 0-112-3.2-3.2-76.8-41.6-137.6-112-182.4 0 0 0 0 0 0-3.2 0-6.4-3.2-9.6-3.2-6.4 0-9.6 3.2-12.8 9.6l-51.2 86.4c-3.2 0-3.2 3.2-6.4 3.2s-3.2 0-6.4 0c-6.4 0-12.8-3.2-16-9.6l-160-345.6c0-3.2 0-3.2 0-6.4 0-9.6 6.4-16 16-19.2l380.8-35.2c0 0 0 0 0 0 3.2 0 6.4 0 9.6 3.2 6.4 3.2 9.6 16 6.4 22.4l-51.2 86.4c-3.2 6.4-3.2 16 6.4 22.4 140.8 83.2 211.2 204.8 214.4 361.6-3.2 9.6-48 9.6-96 9.6zM742.4 137.6c-22.4-12.8-28.8-41.6-16-64l35.2-60.8-326.4 28.8 137.6 297.6 35.2-60.8c9.6-16 25.6-22.4 41.6-22.4 9.6 0 16 3.2 25.6 6.4v0 0c70.4 44.8 112 105.6 121.6 179.2 19.2 0 48 0 83.2 0 28.8 0 48 0 60.8 0-12.8-131.2-76.8-230.4-198.4-304z" />
<glyph unicode="&#xe905;" glyph-name="promotion" d="M992 636.8l-432 188.8c-9.6 3.2-16 6.4-25.6 6.4-6.4 0-12.8 0-19.2-3.2l-480-188.8c-12.8-6.4-25.6-16-32-28.8-12.8-28.8 0-60.8 28.8-73.6l204.8-96v-217.6l6.4-3.2c89.6-57.6 185.6-89.6 284.8-89.6s201.6 28.8 310.4 86.4l9.6 3.2v236.8l86.4 44.8v-54.4c-25.6-6.4-41.6-28.8-41.6-54.4 0-19.2 12.8-38.4 28.8-48l-9.6-83.2c0 0 0-3.2 0-3.2 0-22.4 16-38.4 38.4-38.4 0 0 3.2 0 3.2 0 22.4 3.2 35.2 22.4 35.2 41.6l-9.6 83.2c16 9.6 25.6 28.8 25.6 48 0 25.6-19.2 48-41.6 54.4v70.4l32 16c12.8 6.4 22.4 16 25.6 25.6 9.6 32 0 64-28.8 76.8zM963.2 262.4c0-3.2 0-6.4-3.2-9.6s-6.4-3.2-9.6-6.4c-6.4 0-12.8 6.4-12.8 16l9.6 76.8c3.2 0 3.2 0 6.4 0s3.2 0 6.4 0l3.2-76.8zM979.2 393.6c0-19.2-16-32-32-32s-32 16-32 32c0 19.2 16 32 32 32s32-12.8 32-32zM816 240c-195.2-105.6-380.8-105.6-547.2 0v185.6l243.2-115.2c6.4-3.2 16-6.4 22.4-6.4 9.6 0 16 3.2 25.6 6.4l252.8 131.2v-201.6zM988.8 576c-3.2-6.4-6.4-9.6-12.8-12.8l-432-224c-3.2-3.2-6.4-3.2-9.6-3.2s-6.4 0-9.6 3.2l-480 224c-12.8 6.4-16 19.2-12.8 32 3.2 6.4 6.4 9.6 12.8 12.8l480 188.8c3.2 3.2 6.4 3.2 9.6 3.2s6.4 0 9.6-3.2l435.2-188.8c9.6-6.4 16-19.2 9.6-32z" />
<glyph unicode="&#xe906;" glyph-name="hochschulsport" d="M512 960c-281.6 0-512-230.4-512-512s230.4-512 512-512 512 230.4 512 512-230.4 512-512 512zM220.8 828.8c12.8-35.2 35.2-134.4-60.8-288-3.2-6.4-80-115.2-73.6-310.4-35.2 64-54.4 137.6-54.4 217.6 0 153.6 73.6 291.2 188.8 380.8zM121.6 169.6c-22.4 224 64 348.8 67.2 352 108.8 179.2 76.8 288 57.6 323.2 76.8 54.4 166.4 83.2 265.6 83.2 0 0 3.2 0 3.2 0-54.4-76.8-236.8-380.8-172.8-928-89.6 32-166.4 92.8-220.8 169.6zM377.6-12.8c-73.6 608 163.2 918.4 179.2 937.6 80-6.4 156.8-35.2 220.8-76.8-41.6-16-118.4-67.2-160-163.2-35.2-86.4-28.8-182.4 19.2-294.4 0 0 83.2-156.8 70.4-380.8-57.6-25.6-124.8-41.6-195.2-41.6-48 0-92.8 6.4-134.4 19.2zM742.4 25.6c9.6 224-70.4 374.4-73.6 377.6-44.8 102.4-51.2 192-19.2 268.8 41.6 102.4 140.8 147.2 156.8 153.6 115.2-86.4 188.8-224 188.8-380.8-3.2-179.2-105.6-336-252.8-419.2z" />
<glyph unicode="&#xe907;" glyph-name="it" d="M832 534.4c-6.4 6.4-16 6.4-22.4 0s-6.4-16 0-22.4c35.2-35.2 54.4-83.2 54.4-131.2 0-51.2-19.2-96-54.4-131.2l-198.4-201.6c-48-51.2-115.2-76.8-185.6-76.8s-137.6 25.6-185.6 73.6l-3.2 3.2c-51.2 51.2-76.8 118.4-76.8 188.8s28.8 137.6 76.8 188.8l198.4 201.6c35.2 35.2 83.2 54.4 131.2 54.4 51.2 0 96-19.2 131.2-54.4 6.4-6.4 16-6.4 22.4 0s6.4 16 0 22.4c-41.6 41.6-96 64-153.6 64s-112-22.4-153.6-64l-198.4-201.6c-54.4-57.6-86.4-131.2-86.4-211.2s32-153.6 86.4-211.2l3.2-3.2c54.4-57.6 128-86.4 208-86.4s153.6 32 208 86.4l198.4 201.6c41.6 41.6 64 96 64 156.8 0 57.6-22.4 112-64 153.6zM800 659.2c0-16-6.4-28.8-16-41.6l-233.6-230.4-76.8 76.8c-6.4 6.4-16 6.4-22.4 0s-6.4-16 0-22.4l179.2-182.4c3.2-3.2 6.4-3.2 9.6-3.2s9.6 0 9.6 3.2c6.4 6.4 6.4 16 0 22.4l-80 83.2 233.6 230.4c16 16 25.6 38.4 25.6 64 0 22.4-9.6 44.8-28.8 64s-32 44.8-32 73.6c0 28.8 9.6 54.4 32 73.6l64 60.8c6.4 6.4 6.4 16 0 22.4s-16 6.4-22.4 0l-64-60.8c-25.6-25.6-41.6-60.8-41.6-96s12.8-70.4 41.6-96c16-12.8 22.4-25.6 22.4-41.6z" />
<glyph unicode="&#xe908;" glyph-name="argelander" d="M1017.6 700.8l-83.2 201.6c-12.8 35.2-48 57.6-83.2 57.6-12.8 0-22.4-3.2-35.2-6.4l-67.2-28.8c-9.6-3.2-12.8-16-9.6-22.4l9.6-25.6-643.2-281.6c-9.6-3.2-12.8-12.8-9.6-22.4l9.6-25.6-86.4-35.2c-6.4-3.2-12.8-9.6-16-16s-3.2-16 0-22.4l35.2-86.4c6.4-12.8 16-19.2 28.8-19.2 3.2 0 6.4 0 12.8 3.2l86.4 35.2 6.4-19.2c3.2-6.4 9.6-9.6 16-9.6 0 0 3.2 0 3.2 0l224 67.2v-54.4c0-19.2 16-35.2 35.2-35.2h57.6v-124.8l-275.2-268.8c-6.4-6.4-6.4-16 0-22.4-3.2 0 3.2-3.2 6.4-3.2s9.6 0 9.6 3.2l252.8 246.4v-236.8c0-9.6 6.4-16 16-16s16 6.4 16 16v236.8l252.8-246.4c6.4-3.2 9.6-3.2 12.8-3.2s9.6 3.2 12.8 6.4c6.4 6.4 6.4 16 0 22.4l-275.2 268.8v124.8h57.6c19.2 0 35.2 16 35.2 35.2v118.4l240 70.4 6.4-16c3.2-6.4 9.6-12.8 16-12.8 3.2 0 3.2 0 6.4 0l67.2 28.8c48 16 70.4 70.4 51.2 118.4zM67.2 400l-35.2 83.2 86.4 35.2 35.2-83.2-86.4-35.2zM595.2 387.2l-147.2 3.2v64l150.4 44.8-3.2-112zM195.2 412.8l-64 156.8 531.2 230.4 89.6-224-556.8-163.2zM784 588.8l-92.8 227.2 70.4 28.8 96-233.6-73.6-22.4zM988.8 643.2c-6.4-16-19.2-25.6-32-32l-54.4-22.4-128 313.6 54.4 22.4c6.4 3.2 12.8 3.2 22.4 3.2 25.6 0 44.8-16 54.4-38.4l83.2-201.6c3.2-16 3.2-32 0-44.8z" />
<glyph unicode="&#xe909;" glyph-name="diversity" d="M192 912c89.6 0 160-70.4 160-160s-70.4-160-160-160-160 70.4-160 160 70.4 160 160 160zM192 944c-105.6 0-192-86.4-192-192s86.4-192 192-192 192 86.4 192 192-86.4 192-192 192v0zM992 912v-304h-304v304h304zM1008 944h-336c-9.6 0-16-6.4-16-16v-336c0-9.6 6.4-16 16-16h332.8c9.6 0 16 6.4 16 16v336c3.2 9.6-3.2 16-12.8 16v0zM934.4 297.6l54.4-188.8-150.4-108.8-147.2 108.8 54.4 188.8h188.8zM956.8 329.6h-236.8l-64-233.6 185.6-137.6 182.4 137.6-67.2 233.6zM188.8 246.4l137.6-230.4h-272l134.4 230.4zM188.8 310.4l-188.8-323.2h384l-195.2 323.2z" />
<glyph unicode="&#xe90a;" glyph-name="sprache" d="M393.6 403.2c144 163.2 220.8 288 227.2 380.8h153.6v32h-364.8v118.4h-32v-118.4h-377.6v-32h588.8c-9.6-83.2-80-201.6-217.6-352-41.6 51.2-83.2 108.8-128 172.8h-41.6c51.2-76.8 99.2-140.8 147.2-198.4-67.2-76.8-150.4-160-249.6-249.6l22.4-25.6c96 89.6 179.2 172.8 249.6 249.6 57.6-67.2 115.2-121.6 166.4-160v41.6c-44.8 35.2-92.8 83.2-144 140.8zM828.8 464h-35.2l-195.2-505.6h35.2l67.2 176h220.8l67.2-176h35.2l-195.2 505.6zM713.6 166.4l96 249.6 96-249.6h-192z" />
<glyph unicode="&#xe90b;" glyph-name="veranstaltung" d="M403.2 201.6c-9.6 0-19.2 3.2-25.6 9.6s-12.8 16-12.8 28.8l-51.2-6.4c3.2-22.4 12.8-41.6 28.8-57.6s38.4-22.4 64-22.4 48 9.6 67.2 25.6c19.2 16 25.6 38.4 25.6 64 0 16-6.4 32-16 44.8s-22.4 19.2-38.4 22.4c25.6 16 41.6 35.2 41.6 57.6 0 16-6.4 32-19.2 48-16 16-38.4 25.6-64 25.6-16 0-28.8-3.2-41.6-9.6s-22.4-12.8-28.8-22.4c-6.4-9.6-12.8-22.4-16-41.6l48-9.6c0 12.8 6.4 22.4 12.8 28.8s12.8 9.6 22.4 9.6 16-3.2 22.4-9.6c6.4-6.4 9.6-12.8 9.6-22.4s-3.2-19.2-12.8-25.6c-6.4-6.4-19.2-9.6-32-9.6l-6.4-41.6c9.6 3.2 19.2 3.2 25.6 3.2 9.6 0 19.2-3.2 25.6-12.8 6.4-6.4 9.6-19.2 9.6-32s-3.2-25.6-12.8-35.2c-9.6-9.6-12.8-9.6-25.6-9.6zM656 163.2h54.4v281.6h-44.8c-6.4-16-16-32-35.2-44.8s-32-22.4-44.8-25.6v-48c25.6 9.6 51.2 22.4 70.4 41.6v-204.8zM972.8 864h-147.2c-9.6 0-16-6.4-16-16s9.6-16 16-16h147.2c3.2 0 3.2-3.2 3.2-3.2v-188.8h-937.6v188.8c0 3.2 0 3.2 3.2 3.2h150.4c9.6 0 16 6.4 16 16s-9.6 16-19.2 16h-144c-22.4 0-38.4-16-38.4-35.2v-857.6c0-19.2 16-35.2 35.2-35.2h931.2c19.2 0 35.2 16 35.2 35.2v857.6c0 19.2-16 35.2-35.2 35.2zM976-28.8c0-3.2 0-3.2 0 0l-934.4-3.2c-3.2 0-3.2 0-3.2 3.2v633.6h937.6v-633.6zM272 736c9.6 0 16 6.4 16 16v192c0 9.6-6.4 16-16 16s-16-6.4-16-16v-192c0-9.6 6.4-16 16-16zM745.6 736c9.6 0 16 6.4 16 16v192c0 9.6-6.4 16-16 16s-16-6.4-16-16v-192c0-9.6 6.4-16 16-16zM358.4 832h313.6c9.6 0 16 6.4 16 16s-6.4 16-16 16h-313.6c-9.6 0-16-6.4-16-16s6.4-16 16-16z" />
<glyph unicode="&#xe90c;" glyph-name="studieren" d="M960 361.6v156.8c-19.2 0-35.2 3.2-54.4 3.2-51.2 0-99.2-6.4-150.4-16-64 32-124.8 48-182.4 54.4 80 28.8 140.8 105.6 140.8 195.2 3.2 112-89.6 204.8-201.6 204.8s-208-92.8-208-208c0-89.6 57.6-166.4 137.6-195.2-96-9.6-163.2-44.8-182.4-54.4-48 9.6-92.8 16-140.8 16-16 0-35.2 0-54.4-3.2v-153.6c-25.6-3.2-41.6-22.4-41.6-48v-67.2c0-25.6 19.2-44.8 41.6-48v-160c144 0 288-35.2 432-99.2l16-3.2 16 6.4c144 67.2 288 99.2 432 99.2v156.8c25.6 3.2 41.6 22.4 41.6 48v67.2c0 22.4-19.2 44.8-41.6 48zM336 752c0 99.2 80 176 176 176s176-76.8 176-176-80-172.8-176-172.8-176 76.8-176 172.8zM54.4 246.4v67.2c0 9.6 6.4 16 16 16h19.2c9.6 0 16-6.4 16-16v-67.2c0-9.6-6.4-16-16-16h-19.2c-9.6 0-16 6.4-16 16zM496-25.6c-134.4 60.8-268.8 92.8-400 96v128c22.4 3.2 38.4 25.6 38.4 48v67.2c3.2 22.4-16 44.8-38.4 48v121.6c6.4 0 12.8 0 22.4 0 128 0 256-38.4 377.6-112v-396.8zM512 403.2c-67.2 41.6-134.4 70.4-201.6 89.6 70.4 28.8 220.8 67.2 396.8-3.2-64-19.2-131.2-48-195.2-86.4zM528-22.4v396.8c121.6 73.6 249.6 112 377.6 112 6.4 0 12.8 0 22.4 0v-124.8c-22.4-3.2-38.4-25.6-38.4-48v-67.2c0-25.6 16-41.6 38.4-48v-124.8c-131.2-3.2-265.6-38.4-400-96zM969.6 246.4c0-9.6-6.4-16-16-16h-16c-9.6 0-16 6.4-16 16v67.2c0 9.6 6.4 16 16 16h16c9.6 0 16-6.4 16-16v-67.2z" />
<glyph unicode="&#xe90d;" glyph-name="ranking" d="M380.8 688l-6.4-124.8c0-6.4 3.2-9.6 6.4-12.8s9.6-3.2 16-3.2l115.2 41.6 115.2-41.6c3.2 0 3.2 0 6.4 0s6.4 0 9.6 3.2c3.2 3.2 6.4 9.6 6.4 12.8l-6.4 124.8 76.8 96c3.2 3.2 3.2 9.6 3.2 16-3.2 6.4-6.4 9.6-9.6 9.6l-118.4 32-67.2 102.4c-6.4 9.6-19.2 9.6-25.6 0l-67.2-102.4-118.4-32c-6.4 0-9.6-6.4-9.6-9.6-3.2-6.4 0-9.6 3.2-16l70.4-96zM444.8 812.8c3.2 0 6.4 3.2 9.6 6.4l57.6 86.4 57.6-86.4c3.2-3.2 6.4-6.4 9.6-6.4l102.4-28.8-64-83.2c-3.2-3.2-3.2-6.4-3.2-9.6l3.2-105.6-99.2 38.4c-3.2 0-3.2 0-6.4 0s-3.2 0-6.4 0l-99.2-38.4 3.2 105.6c0 3.2 0 6.4-3.2 9.6l-64 83.2 102.4 28.8zM1008-25.6h-105.6v272c0 9.6-6.4 16-16 16h-214.4v220.8c0 9.6-6.4 16-16 16h-275.2c-9.6 0-16-6.4-16-16v-121.6h-227.2c-9.6 0-16-6.4-16-16v-371.2h-105.6c-9.6 0-16-6.4-16-12.8s6.4-16 16-16h992c9.6 0 16 6.4 16 16s-6.4 12.8-16 12.8zM364.8-22.4h-211.2v355.2h211.2v-355.2zM640-22.4h-243.2v492.8h243.2v-492.8zM870.4-22.4h-198.4v256h198.4v-256z" />
<glyph unicode="&#xe90e;" glyph-name="beratung" d="M224 640h412.8c9.6 0 16 6.4 16 16s-9.6 16-16 16h-412.8c-9.6 0-16-9.6-16-16s6.4-16 16-16zM224 521.6h412.8c9.6 0 16 6.4 16 16s-6.4 16-16 16h-412.8c-9.6 0-16-6.4-16-16s6.4-16 16-16zM652.8 422.4c0 9.6-6.4 16-16 16h-412.8c-9.6 0-16-6.4-16-16s6.4-16 16-16h412.8c6.4 0 16 6.4 16 16zM902.4 35.2c-3.2 3.2-6.4 6.4-6.4 12.8s3.2 9.6 6.4 12.8c80 80 124.8 185.6 124.8 300.8 0 153.6-83.2 291.2-208 364.8v0c-73.6 137.6-217.6 233.6-387.2 233.6-236.8 0-432-195.2-432-432 0-115.2 44.8-224 128-307.2 3.2-3.2 6.4-9.6 6.4-12.8 0-6.4-3.2-9.6-6.4-12.8l-73.6-70.4c-3.2-3.2-6.4-12.8-3.2-16 3.2-9.6 6.4-12.8 12.8-12.8h208c9.6-12.8 19.2-22.4 32-35.2 80-80 188.8-124.8 310.4-124.8h3.2l345.6 3.2c6.4 0 12.8 3.2 16 9.6s0 12.8-3.2 16l-73.6 70.4zM105.6 128l44.8 44.8c9.6 6.4 12.8 19.2 12.8 35.2 0 12.8-6.4 25.6-16 35.2v0c-73.6 76.8-115.2 176-115.2 284.8 0 220.8 179.2 400 400 400s400-179.2 400-400c0-105.6-41.6-211.2-118.4-284.8-76.8-76.8-182.4-115.2-297.6-118.4l-310.4 3.2zM614.4-32c-112 0-214.4 38.4-291.2 115.2-3.2 3.2-6.4 6.4-9.6 12.8h108.8c121.6 0 233.6 44.8 316.8 124.8 80 80 128 192 128 307.2 0 51.2-9.6 99.2-25.6 144 92.8-70.4 153.6-182.4 153.6-310.4 0-105.6-41.6-201.6-115.2-278.4-9.6-9.6-16-22.4-16-35.2s6.4-25.6 16-35.2l44.8-41.6-310.4-3.2z" />
<glyph unicode="&#xe90f;" glyph-name="foerderung" d="M1008 736h-912c-6.4 0-16-6.4-16-16v-64h-64c-9.6 0-16-9.6-16-16v-448c0-9.6 6.4-16 16-16h912c9.6 0 16 6.4 16 16v64h64c9.6 0 16 6.4 16 16v448c0 9.6-6.4 16-16 16zM912 204.8h-880v416h48v-352c0-6.4 9.6-12.8 16-12.8h812.8v-51.2zM992 288h-880v416h880v-416zM409.6 460.8c0-9.6 6.4-16 16-16h41.6c19.2-70.4 76.8-118.4 144-118.4 25.6 0 54.4 9.6 76.8 22.4 6.4 6.4 9.6 16 6.4 22.4-6.4 6.4-16 9.6-22.4 6.4-16-12.8-38.4-19.2-57.6-19.2-48 0-92.8 35.2-108.8 86.4h57.6c9.6 0 16 6.4 16 16s-9.6 19.2-19.2 19.2h-67.2c0 6.4 0 12.8 0 16 0 6.4 0 12.8 0 16h67.2c9.6 0 16 6.4 16 16s-6.4 16-16 16h-57.6c16 51.2 60.8 86.4 108.8 86.4 19.2 0 41.6-6.4 57.6-19.2 6.4-6.4 19.2-3.2 22.4 6.4 6.4 6.4 3.2 19.2-6.4 22.4-22.4 16-48 22.4-76.8 22.4-67.2 0-124.8-51.2-144-118.4h-41.6c-9.6 0-16-6.4-16-16s6.4-16 16-16h35.2c0-6.4 0-12.8 0-16 0-6.4 0-12.8 0-16h-35.2c-3.2 0-12.8-9.6-12.8-19.2z" />
<glyph unicode="&#xe910;" glyph-name="qualitaetssicherung" d="M768 534.4h-291.2c-9.6 0-16-6.4-16-16s6.4-16 16-16h291.2c9.6 0 16 6.4 16 16s-6.4 16-16 16zM768 323.2h-291.2c-9.6 0-16-6.4-16-16s6.4-16 16-16h291.2c9.6 0 16 6.4 16 16s-6.4 16-16 16zM768 112h-291.2c-9.6 0-16-6.4-16-16s6.4-16 16-16h291.2c9.6 0 16 6.4 16 16s-6.4 16-16 16zM387.2 576l-80-80-35.2 35.2c-6.4 6.4-16 6.4-22.4 0s-6.4-16 0-22.4l44.8-44.8c3.2-3.2 6.4-3.2 12.8-3.2s9.6 0 12.8 3.2l92.8 92.8c6.4 6.4 6.4 16 0 22.4s-19.2 3.2-25.6-3.2zM387.2 364.8l-80-80-35.2 35.2c-6.4 6.4-16 6.4-22.4 0s-6.4-16 0-22.4l44.8-44.8c3.2-3.2 6.4-3.2 12.8-3.2s9.6 3.2 12.8 3.2l92.8 92.8c6.4 6.4 6.4 16 0 22.4s-19.2 3.2-25.6-3.2zM387.2 153.6l-80-80-35.2 35.2c-6.4 6.4-16 6.4-22.4 0s-6.4-16 0-22.4l44.8-44.8c3.2-6.4 6.4-9.6 9.6-9.6s9.6 3.2 12.8 3.2l92.8 92.8c6.4 6.4 6.4 16 0 22.4s-16 6.4-22.4 3.2zM860.8 793.6h-73.6v64c0 6.4-6.4 12.8-12.8 12.8h-150.4c-9.6 51.2-54.4 89.6-108.8 89.6s-99.2-38.4-108.8-89.6h-147.2c-6.4 0-12.8-6.4-12.8-12.8v-64h-73.6c-6.4 0-12.8-3.2-12.8-12.8v-832c0-6.4 6.4-12.8 12.8-12.8h688c6.4 0 12.8 6.4 12.8 12.8v832c0 9.6-6.4 12.8-12.8 12.8zM515.2 928c35.2 0 67.2-22.4 76.8-57.6h-153.6c12.8 35.2 41.6 57.6 76.8 57.6zM278.4 838.4h476.8v-121.6h-476.8v121.6zM841.6-32h-649.6v793.6h54.4v-64c0-6.4 6.4-12.8 12.8-12.8h515.2c6.4 0 12.8 6.4 12.8 12.8v64h54.4v-793.6z" />
<glyph unicode="&#xe911;" glyph-name="lernplattform" d="M953.6 668.8c-48 51.2-118.4 73.6-188.8 70.4h-6.4l-3.2 6.4c-12.8 57.6-48 112-96 147.2-48 38.4-105.6 57.6-166.4 57.6-70.4 0-137.6-28.8-188.8-80-48-48-76.8-115.2-76.8-185.6v-9.6h-16c-57.6 0-108.8-22.4-150.4-60.8-38.4-41.6-60.8-92.8-60.8-150.4 0-51.2 19.2-102.4 54.4-140.8s80-64 134.4-70.4h89.6v-294.4c0-9.6 6.4-16 16-16h432c9.6 0 16 6.4 16 16v89.6c0 0 3.2 0 3.2 3.2 3.2 0 3.2 3.2 3.2 3.2l144 176c9.6 12.8 9.6 35.2-3.2 44.8v0c28.8 12.8 51.2 32 73.6 54.4 41.6 44.8 64 102.4 64 163.2-3.2 70.4-28.8 131.2-73.6 176zM307.2-22.4v470.4h342.4v-163.2h-70.4c-19.2 0-32-16-32-32 0-6.4 3.2-16 6.4-19.2l144-176c3.2-3.2 6.4-6.4 9.6-9.6v-70.4h-400zM707.2 480h-368c-9.6 0-16 3.2-22.4 9.6s-6.4 12.8-9.6 19.2v6.4c0 6.4 3.2 16 9.6 19.2 6.4 6.4 12.8 9.6 22.4 9.6h368v-64zM723.2 76.8l-144 179.2h70.4c19.2 0 32 16 32 32v163.2h89.6v-163.2c0-16 9.6-25.6 22.4-32v0h3.2c3.2 0 3.2 0 6.4 0h64l-144-179.2zM937.6 355.2c-35.2-38.4-83.2-64-131.2-67.2v160c0 19.2-16 32-32 32h-32v80c0 9.6-6.4 16-16 16h-384c-16 0-32-6.4-44.8-19.2s-19.2-25.6-19.2-41.6v-230.4h-86.4c-44.8 6.4-83.2 25.6-112 60.8-28.8 32-44.8 76.8-44.8 118.4 0 48 19.2 92.8 51.2 128 35.2 35.2 80 51.2 124.8 51.2h32c3.2 0 9.6 0 12.8 3.2s6.4 6.4 6.4 12.8v25.6c0 64 25.6 121.6 70.4 166.4s102.4 70.4 166.4 70.4c54.4 0 105.6-16 147.2-51.2 41.6-32 70.4-80 83.2-131.2l3.2-19.2c3.2-6.4 9.6-12.8 16-12.8h19.2c60.8 3.2 118.4-19.2 163.2-60.8 38.4-38.4 60.8-92.8 60.8-150.4 0-51.2-19.2-102.4-54.4-140.8z" />
<glyph unicode="&#xe912;" glyph-name="alumni" d="M1014.4 505.6c-3.2 118.4-48 230.4-134.4 313.6-83.2 83.2-195.2 131.2-313.6 134.4l-441.6 6.4c0 0 0 0-3.2 0-57.6 0-105.6-38.4-118.4-96-6.4-32 0-64 16-92.8 16-25.6 44.8-44.8 76.8-51.2l416-89.6c89.6-19.2 160-89.6 179.2-179.2l92.8-419.2c6.4-32 25.6-57.6 54.4-76.8 19.2-12.8 41.6-19.2 64-19.2 9.6 0 19.2 0 25.6 3.2 57.6 12.8 96 64 96 121.6l-9.6 444.8zM44.8 790.4c-12.8 19.2-16 44.8-9.6 67.2 6.4 41.6 44.8 70.4 86.4 70.4h64l-25.6-188.8-57.6 12.8c-22.4 6.4-44.8 19.2-57.6 38.4zM723.2 454.4c-22.4 102.4-102.4 182.4-204.8 204.8l-326.4 73.6 25.6 195.2 352-6.4c108.8-3.2 214.4-44.8 291.2-124.8 76.8-76.8 121.6-182.4 124.8-291.2l6.4-361.6-188.8-44.8-80 355.2zM921.6-28.8c-6.4 0-12.8-3.2-19.2-3.2-16 0-32 6.4-48 12.8-19.2 12.8-35.2 32-38.4 54.4l-6.4 32 182.4 41.6v-51.2c0-41.6-28.8-76.8-70.4-86.4z" />
<glyph unicode="&#xe913;" glyph-name="postdocs" d="M992 950.4c-12.8 9.6-28.8 12.8-41.6 3.2l-928-553.6c-6.4-3.2-12.8-9.6-12.8-16-3.2-9.6-3.2-16 0-25.6 3.2-6.4 9.6-12.8 19.2-16l246.4-89.6 108.8-291.2c6.4-12.8 16-22.4 28.8-22.4 3.2 0 6.4 0 12.8 3.2s9.6 6.4 12.8 9.6l160 195.2 217.6-70.4c22.4-6.4 38.4 9.6 41.6 22.4l153.6 816c0 12.8-9.6 28.8-19.2 35.2zM35.2 374.4l905.6 544c-105.6-112-438.4-422.4-662.4-633.6v0l-243.2 89.6zM300.8 259.2c246.4 233.6 499.2 489.6 601.6 588.8-80-105.6-294.4-368-473.6-608-3.2-3.2-6.4-9.6-6.4-16v0l-22.4-233.6-99.2 268.8zM432 0l19.2 192 112-35.2-131.2-156.8zM454.4 224v0c182.4 243.2 451.2 595.2 518.4 678.4l-150.4-796.8-368 118.4z" />
<glyph unicode="&#xe914;" glyph-name="strategie" d="M713.6 140.8c156.8 147.2 179.2 326.4 57.6 534.4-16 22.4-48 51.2-92.8 89.6-9.6 9.6-28.8 19.2-51.2 32-25.6 16-54.4 32-80 51.2-28.8 22.4-64 51.2-105.6 86.4-16 19.2-28.8 25.6-38.4 25.6-3.2 0-19.2 0-32-16-19.2-22.4-19.2-64-3.2-128v-3.2c3.2-3.2 3.2-9.6 3.2-9.6-3.2-3.2-41.6-38.4-198.4-182.4-12.8-12.8-16-32-6.4-44.8l16-25.6c0 0 0-3.2 0-3.2l-6.4-3.2c-9.6-16-6.4-35.2 6.4-44.8l60.8-54.4c12.8-12.8 32-12.8 44.8 0 92.8 80 128 86.4 144 83.2 3.2 0 9.6-3.2 9.6-9.6 0-3.2-6.4-32-140.8-160-41.6-54.4-22.4-131.2 57.6-220.8-16-6.4-28.8-12.8-41.6-25.6-16-19.2-28.8-44.8-28.8-73.6v-102.4h512v102.4c0 28.8-9.6 54.4-28.8 73.6-16 16-35.2 25.6-57.6 28.8zM745.6 656c118.4-204.8 92.8-374.4-80-515.2h-128c188.8 182.4 246.4 368 166.4 556.8 19.2-16 32-32 41.6-41.6zM326.4 336c150.4 140.8 153.6 172.8 147.2 192-9.6 19.2-22.4 28.8-35.2 28.8-35.2 9.6-89.6-19.2-169.6-89.6 0 0-3.2 0-3.2 0l-60.8 54.4c0 0 0 3.2 0 3.2l3.2 3.2c6.4 12.8 6.4 25.6 0 38.4l-16 25.6c0 0 0 3.2 0 3.2 192 172.8 198.4 179.2 201.6 182.4 16 16 6.4 38.4 3.2 44.8-16 70.4-6.4 92.8-3.2 99.2s6.4 6.4 6.4 6.4c0 0 6.4-3.2 19.2-16 41.6-35.2 76.8-67.2 105.6-86.4 28.8-22.4 57.6-38.4 83.2-54.4 12.8-9.6 35.2-19.2 35.2-22.4 118.4-204.8 67.2-406.4-153.6-608h-96c0 3.2 0 3.2-3.2 3.2-73.6 86.4-96 150.4-64 192zM771.2-32h-448v70.4c0 19.2 6.4 35.2 19.2 51.2s32 19.2 51.2 19.2h307.2c19.2 0 35.2-6.4 51.2-19.2 12.8-12.8 19.2-32 19.2-51.2v-70.4zM416 723.2l-44.8-44.8c-6.4-6.4-6.4-16 0-22.4 3.2-3.2 6.4-3.2 12.8-3.2s9.6 0 12.8 3.2l44.8 44.8c6.4 6.4 6.4 16 0 22.4s-19.2 6.4-25.6 0z" />
<glyph unicode="&#xe915;" glyph-name="uniE915" d="M348.8 438.4h-185.6c-16 0-28.8-12.8-28.8-28.8v-185.6c0-16 12.8-28.8 28.8-28.8h182.4c16 0 28.8 12.8 28.8 28.8v182.4c3.2 16-9.6 32-25.6 32zM345.6 227.2h-179.2v179.2h179.2v-179.2z" />
<glyph unicode="&#xe916;" glyph-name="uniE916" d="M995.2 652.8h-166.4v182.4c0 16-12.8 28.8-28.8 28.8h-768c-19.2 0-32-12.8-32-28.8v-780.8c0-16 12.8-28.8 28.8-28.8h966.4c16 0 28.8 12.8 28.8 28.8v569.6c0 16-12.8 28.8-28.8 28.8zM32 54.4v777.6h761.6v-694.4c0-35.2 9.6-64 28.8-83.2h-790.4zM992 54.4h-89.6c-51.2 3.2-76.8 28.8-76.8 83.2v483.2h166.4v-566.4z" />
<glyph unicode="&#xe917;" glyph-name="uniE917" d="M134.4 688h592v-32h-592v32z" />
<glyph unicode="&#xe918;" glyph-name="uniE918" d="M134.4 569.6h592v-32h-592v32z" />
<glyph unicode="&#xe919;" glyph-name="uniE919" d="M444.8 438.4h281.6v-32h-281.6v32z" />
<glyph unicode="&#xe91a;" glyph-name="uniE91A" d="M444.8 332.8h281.6v-32h-281.6v32z" />
<glyph unicode="&#xe91b;" glyph-name="uniE91B" d="M444.8 227.2h281.6v-32h-281.6v32z" />
<glyph unicode="&#xe91c;" glyph-name="lehre" d="M192 336c67.2 0 121.6 54.4 121.6 121.6s-54.4 124.8-121.6 124.8-121.6-54.4-121.6-121.6 54.4-124.8 121.6-124.8zM192 550.4c51.2 0 89.6-41.6 89.6-89.6s-38.4-92.8-89.6-92.8-89.6 41.6-89.6 89.6 38.4 92.8 89.6 92.8zM192 313.6c-105.6 0-192-86.4-192-192v-105.6h32v105.6c0 89.6 70.4 160 160 160s160-70.4 160-160v-115.2h32v115.2c0 105.6-86.4 192-192 192zM995.2 896h-844.8c-16 0-32-12.8-32-32v-76.8c0-16 12.8-32 32-32h16v-121.6c0 0 0 0 0 0v0 0c0-9.6 6.4-16 16-16s16 6.4 16 16v0 124.8h748.8v-534.4h-521.6c-9.6 0-16-6.4-16-16s6.4-16 16-16h131.2v-48c-32-6.4-54.4-35.2-54.4-67.2 0-38.4 32-70.4 70.4-70.4s70.4 32 70.4 70.4c0 32-22.4 60.8-54.4 67.2v48h358.4c16 0 32 12.8 32 32v534.4h16c16 0 32 12.8 32 32v73.6c0 19.2-16 32-32 32zM611.2 76.8c0-19.2-16-38.4-38.4-38.4s-38.4 16-38.4 38.4c0 19.2 16 38.4 38.4 38.4s38.4-19.2 38.4-38.4zM153.6 787.2v76.8h841.6v-76.8h-841.6z" />
<glyph unicode="&#xe91d;" glyph-name="exellenz" d="M396.8 528l-25.6-140.8c0-6.4 0-12.8 6.4-16 3.2-3.2 6.4-3.2 9.6-3.2s6.4 0 6.4 3.2l124.8 67.2 124.8-67.2c6.4-3.2 12.8-3.2 16 0 6.4 3.2 6.4 9.6 6.4 16l-25.6 140.8 102.4 99.2c3.2 3.2 6.4 9.6 3.2 16s-6.4 9.6-12.8 9.6l-137.6 19.2-60.8 128c-6.4 9.6-22.4 9.6-28.8 0l-60.8-128-140.8-19.2c-6.4 0-9.6-6.4-12.8-9.6-3.2-6.4 0-12.8 3.2-16l102.4-99.2zM457.6 643.2c6.4 0 9.6 3.2 12.8 9.6l51.2 105.6 51.2-105.6c3.2-6.4 6.4-9.6 12.8-9.6l115.2-16-83.2-80c-3.2-3.2-6.4-9.6-3.2-12.8l19.2-115.2-102.4 54.4c-3.2 0-6.4 3.2-6.4 3.2s-6.4 0-6.4-3.2l-108.8-57.6 19.2 115.2c0 6.4 0 9.6-3.2 12.8l-83.2 80 115.2 19.2zM902.4 70.4l-131.2 224c76.8 70.4 124.8 169.6 124.8 281.6 0 211.2-172.8 384-384 384s-384-172.8-384-384c0-108.8 44.8-208 121.6-278.4l-134.4-230.4c-3.2-6.4-3.2-12.8 0-19.2s9.6-6.4 16-6.4l150.4 35.2 51.2-137.6c3.2-6.4 6.4-9.6 12.8-9.6 0 0 0 0 0 0 6.4 0 9.6 3.2 12.8 6.4l147.2 243.2 147.2-243.2c3.2-3.2 9.6-6.4 12.8-6.4 0 0 0 0 0 0 6.4 0 12.8 3.2 12.8 9.6l51.2 137.6 150.4-35.2c6.4 0 12.8 0 16 6.4 9.6 9.6 9.6 16 6.4 22.4zM160 576c0 192 156.8 352 352 352s352-156.8 352-352c0-192-156.8-348.8-348.8-352-3.2 0-3.2 0-6.4 0 0 0 0 0 0 0s0 0-3.2 0c-192 6.4-345.6 163.2-345.6 352zM348.8-12.8l-44.8 118.4c-3.2 6.4-9.6 12.8-19.2 9.6l-124.8-32 112 192c57.6-44.8 128-73.6 204.8-83.2l-128-204.8zM729.6 118.4c-9.6 3.2-16-3.2-19.2-9.6l-44.8-118.4-128 208c76.8 6.4 147.2 35.2 204.8 80l108.8-188.8-121.6 28.8z" />
<glyph unicode="&#xe91e;" glyph-name="multiplikatoren" d="M502.4 451.2c140.8 0 256 115.2 256 256s-115.2 256-256 256-256-115.2-256-256 115.2-256 256-256zM502.4 928c121.6 0 224-99.2 224-224s-99.2-224-224-224c-121.6 0-224 99.2-224 224s99.2 224 224 224zM700.8 326.4c6.4 6.4 3.2 16-3.2 22.4-60.8 38.4-131.2 60.8-204.8 60.8-208 0-380.8-169.6-380.8-380.8v-92.8h32v92.8c0 192 156.8 348.8 348.8 348.8 67.2 0 131.2-19.2 188.8-54.4 6.4-6.4 16-3.2 19.2 3.2zM979.2 150.4h-118.4v118.4c0 9.6-6.4 16-16 16s-16-6.4-16-16v-118.4h-118.4c-9.6 0-16-6.4-16-16s6.4-16 16-16h118.4v-118.4c0-9.6 6.4-16 16-16s16 6.4 16 16v118.4h118.4c9.6 0 16 6.4 16 16s-6.4 16-16 16z" />
<glyph unicode="&#xe91f;" glyph-name="kontakt" d="M502.4 451.2c140.8 0 256 115.2 256 256s-115.2 256-256 256-256-115.2-256-256 115.2-256 256-256zM502.4 928c121.6 0 224-99.2 224-224s-99.2-224-224-224c-121.6 0-224 99.2-224 224s99.2 224 224 224zM700.8 326.4c6.4 6.4 3.2 16-3.2 22.4-60.8 38.4-131.2 60.8-204.8 60.8-208 0-380.8-169.6-380.8-380.8v-92.8h32v92.8c0 192 156.8 348.8 348.8 348.8 67.2 0 131.2-19.2 188.8-54.4 6.4-6.4 16-3.2 19.2 3.2zM899.2 243.2c-3.2 9.6-9.6 16-16 22.4l-25.6 16c-9.6 6.4-19.2 3.2-22.4-6.4l-41.6-60.8c-6.4-6.4-3.2-19.2 3.2-22.4l22.4-19.2c3.2-3.2 3.2-6.4 3.2-9.6l-3.2-3.2c-6.4-9.6-12.8-25.6-41.6-54.4s-41.6-35.2-54.4-41.6h-3.2c-3.2-3.2-6.4 0-9.6 3.2l-19.2 22.4c-6.4 6.4-16 9.6-22.4 3.2l-60.8-41.6c-6.4-6.4-9.6-16-6.4-22.4l16-25.6c3.2-6.4 12.8-12.8 22.4-16 6.4-3.2 16-3.2 22.4-3.2 35.2 0 83.2 19.2 150.4 86.4 86.4 83.2 92.8 140.8 86.4 172.8z" />
<glyph unicode="&#xe920;" glyph-name="ort" d="M681.6 176c-9.6 0-16-3.2-19.2-12.8 0-9.6 3.2-16 12.8-19.2 121.6-19.2 179.2-57.6 179.2-83.2 0-44.8-137.6-92.8-323.2-92.8s-323.2 51.2-323.2 92.8c0 28.8 60.8 67.2 182.4 83.2 9.6 0 16 9.6 12.8 19.2 0 9.6-9.6 16-19.2 12.8-131.2-19.2-208-64-208-115.2 0-83.2 182.4-124.8 355.2-124.8s355.2 44.8 355.2 124.8c0 54.4-76.8 96-204.8 115.2zM531.2 102.4c51.2 0 150.4 115.2 288 345.6 32 51.2 48 112 48 176 3.2 185.6-150.4 336-336 336s-336-150.4-336-336c0-60.8 16-118.4 44.8-169.6 19.2-38.4 208-352 291.2-352zM531.2 928c169.6 0 304-137.6 304-304 0-54.4-16-112-44.8-156.8-147.2-243.2-233.6-329.6-262.4-329.6-41.6 0-169.6 172.8-265.6 336-25.6 44.8-41.6 99.2-41.6 153.6 6.4 163.2 144 300.8 310.4 300.8zM540.8 467.2c80 0 144 64 144 144s-64 144-144 144c-80 0-144-64-144-144s64-144 144-144zM540.8 726.4c60.8 0 112-51.2 112-112s-51.2-112-112-112c-60.8 0-112 51.2-112 112s51.2 112 112 112z" />
<glyph unicode="&#xe921;" glyph-name="international" d="M764.8-32h-358.4c-9.6 0-16-6.4-16-16s6.4-16 16-16h358.4c9.6 0 16 6.4 16 16s-9.6 16-16 16zM832 188.8c-9.6-6.4-22.4-12.8-32-19.2-99.2-57.6-217.6-73.6-329.6-41.6s-208 105.6-265.6 204.8c-121.6 211.2-51.2 476.8 153.6 598.4 6.4 3.2 9.6 12.8 6.4 22.4-3.2 6.4-12.8 9.6-22.4 6.4-220.8-128-297.6-416-166.4-640 64-108.8 163.2-188.8 284.8-220.8 35.2-9.6 70.4-16 108.8-16v-115.2h32v112c73.6 3.2 147.2 22.4 214.4 60.8 12.8 6.4 22.4 12.8 35.2 22.4 6.4 6.4 9.6 16 3.2 22.4s-16 9.6-22.4 3.2zM243.2 553.6c0-188.8 153.6-342.4 342.4-342.4s342.4 153.6 342.4 342.4-153.6 342.4-342.4 342.4c-188.8 0-342.4-153.6-342.4-342.4zM326.4 384l105.6 67.2c0 0 0 0 0 0 25.6-38.4 54.4-73.6 86.4-102.4l-92.8-60.8c-38.4 25.6-73.6 57.6-99.2 96zM441.6 496c-25.6 41.6-44.8 86.4-54.4 124.8l220.8 137.6c32-25.6 64-60.8 92.8-99.2l-259.2-163.2zM716.8 630.4c25.6-38.4 44.8-80 57.6-118.4l-230.4-147.2c-32 28.8-60.8 64-86.4 102.4l259.2 163.2zM585.6 243.2c-44.8 0-86.4 9.6-124.8 25.6l86.4 54.4c44.8-35.2 89.6-60.8 131.2-67.2-32-6.4-64-12.8-92.8-12.8zM755.2 300.8c-19.2-12.8-44.8-16-73.6-9.6-35.2 6.4-73.6 25.6-112 54.4l214.4 137.6c22.4-83.2 16-153.6-28.8-182.4zM825.6 361.6c6.4 38.4 3.2 89.6-12.8 140.8l80 51.2c0-73.6-25.6-140.8-67.2-192zM892.8 588.8l-89.6-57.6c-12.8 38.4-35.2 76.8-57.6 115.2l105.6 67.2c22.4-38.4 35.2-80 41.6-124.8zM832 739.2l-105.6-67.2c-28.8 38.4-57.6 73.6-89.6 99.2l89.6 54.4c41.6-19.2 76.8-48 105.6-86.4zM585.6 864c38.4 0 73.6-6.4 105.6-19.2l-80-48c-38.4 28.8-76.8 48-112 54.4 25.6 9.6 54.4 12.8 86.4 12.8zM416 809.6c19.2 12.8 44.8 16 73.6 9.6s60.8-22.4 92.8-41.6l-201.6-124.8c-16 70.4-3.2 131.2 35.2 156.8zM416 476.8l-105.6-67.2c-22.4 41.6-35.2 89.6-35.2 140.8l83.2 51.2c12.8-38.4 32-83.2 57.6-124.8zM348.8 636.8l-73.6-44.8c6.4 60.8 32 115.2 67.2 160-3.2-35.2-3.2-73.6 6.4-115.2z" />
<glyph unicode="&#xe922;" glyph-name="sprechstunde" d="M476.8 147.2h64v-64h-64v64zM476.8 0h64v-64h-64v64zM598.4 396.8c3.2 3.2 9.6 9.6 12.8 12.8l22.4 35.2c6.4 9.6 6.4 22.4 3.2 32 80 41.6 137.6 128 137.6 224 0 140.8-115.2 256-256 256-99.2 0-182.4-54.4-224-137.6-9.6 3.2-22.4 3.2-32-3.2l-38.4-19.2c-12.8-6.4-25.6-22.4-28.8-38.4-12.8-48-3.2-134.4 118.4-259.2 44.8-44.8 86.4-76.8 128-96-179.2-32-313.6-185.6-313.6-374.4v-92.8h32v92.8c0 192 156.8 348.8 348.8 348.8s348.8-156.8 348.8-348.8v-92.8h32v92.8c-3.2 179.2-124.8 326.4-291.2 368zM518.4 928c121.6 0 224-99.2 224-224 0-89.6-51.2-163.2-124.8-198.4l-80 51.2c-16 12.8-41.6 6.4-54.4-9.6l-22.4-28.8c-16 6.4-32 19.2-70.4 54.4-38.4 38.4-48 54.4-54.4 70.4v0l28.8 22.4c16 12.8 19.2 35.2 9.6 54.4l-57.6 83.2c38.4 73.6 112 124.8 201.6 124.8zM563.2 412.8c-9.6-3.2-19.2-3.2-28.8-3.2-54.4 0-124.8 38.4-198.4 115.2-112 108.8-121.6 182.4-108.8 227.2 3.2 9.6 6.4 16 16 19.2l35.2 22.4c0 0 3.2 0 3.2 0 3.2 0 6.4 0 6.4-3.2l57.6-86.4c3.2-3.2 3.2-9.6-3.2-12.8l-32-25.6c-9.6-6.4-12.8-22.4-6.4-35.2l3.2-3.2c9.6-16 19.2-35.2 60.8-76.8s60.8-51.2 76.8-60.8l3.2-3.2c12.8-6.4 25.6-3.2 35.2 6.4l25.6 32c3.2 3.2 6.4 3.2 12.8 3.2l83.2-57.6c3.2-3.2 6.4-6.4 3.2-12.8l-22.4-35.2c-6.4-3.2-12.8-6.4-22.4-9.6z" />
<glyph unicode="&#xe923;" glyph-name="fortbildung" d="M240 729.6l-76.8 76.8c-3.2 6.4-16 6.4-22.4 0s-6.4-16 0-22.4l73.6-73.6c6.4-6.4 9.6-6.4 12.8-6.4s9.6 0 12.8 3.2c6.4 6.4 6.4 16 0 22.4zM873.6 806.4c-6.4 6.4-16 6.4-22.4 0l-73.6-73.6c-6.4-6.4-6.4-16 0-22.4 3.2-6.4 6.4-6.4 9.6-6.4s9.6 0 12.8 3.2l73.6 73.6c6.4 6.4 6.4 19.2 0 25.6zM556.8 115.2h-115.2c-22.4 0-41.6-19.2-41.6-41.6s19.2-41.6 41.6-41.6h115.2c22.4 0 41.6 19.2 41.6 41.6s-19.2 41.6-41.6 41.6zM556.8 64h-115.2c-3.2 0-9.6 3.2-9.6 9.6s3.2 9.6 9.6 9.6h115.2c3.2 0 9.6-3.2 9.6-9.6s-6.4-9.6-9.6-9.6zM540.8 16h-80c-22.4 0-41.6-19.2-41.6-41.6s19.2-41.6 41.6-41.6h80c22.4 0 41.6 19.2 41.6 41.6-3.2 25.6-19.2 41.6-41.6 41.6zM540.8-32h-80c-3.2 0-9.6 3.2-9.6 9.6s3.2 9.6 9.6 9.6h80c3.2 0 9.6-3.2 9.6-9.6s-6.4-9.6-9.6-9.6zM499.2 748.8c-70.4 0-137.6-28.8-188.8-80s-80-121.6-80-195.2c0-73.6 44.8-131.2 80-185.6l3.2-3.2c6.4-9.6 12.8-19.2 19.2-25.6 12.8-16 19.2-38.4 25.6-60.8 3.2-19.2 12.8-35.2 28.8-48s32-19.2 51.2-19.2h118.4c19.2 0 35.2 6.4 51.2 19.2 12.8 12.8 25.6 28.8 28.8 48 6.4 22.4 12.8 41.6 25.6 60.8 6.4 9.6 12.8 16 19.2 28.8l3.2 3.2c38.4 51.2 80 112 80 185.6s-28.8 140.8-80 195.2c-48 48-115.2 76.8-185.6 76.8zM659.2 310.4l-3.2-3.2c-6.4-9.6-12.8-19.2-19.2-28.8-16-22.4-25.6-44.8-32-70.4-3.2-12.8-9.6-22.4-19.2-32-9.6-6.4-19.2-12.8-28.8-12.8h-118.4c-9.6 0-22.4 3.2-28.8 12.8-9.6 6.4-16 19.2-19.2 32-6.4 25.6-16 51.2-32 70.4-6.4 9.6-12.8 19.2-19.2 28.8l-3.2 3.2c-38.4 51.2-76.8 102.4-76.8 166.4s25.6 124.8 70.4 172.8c44.8 44.8 102.4 70.4 166.4 70.4s121.6-25.6 166.4-70.4c44.8-44.8 70.4-105.6 70.4-172.8 3.2-64-38.4-118.4-73.6-166.4zM153.6 483.2h-105.6c-9.6 0-16-6.4-16-16s6.4-16 16-16h105.6c9.6 0 16 6.4 16 16s-6.4 16-16 16zM966.4 483.2h-105.6c-9.6 0-16-6.4-16-16s6.4-16 16-16h105.6c9.6 0 16 6.4 16 16s-6.4 16-16 16zM499.2 822.4c9.6 0 16 6.4 16 16v105.6c0 9.6-6.4 16-16 16s-16-6.4-16-16v-105.6c0-9.6 6.4-16 16-16z" />
<glyph unicode="&#xe924;" glyph-name="bibliothek" d="M92.8 166.4c144 54.4 278.4 54.4 416 0 0 0 3.2 0 3.2 0s0 0 3.2 0c0 0 0 0 0 0s0 0 3.2 0c0 0 3.2 0 3.2 0 144 54.4 278.4 54.4 416 0 3.2 0 3.2 0 6.4 0s6.4 0 9.6 3.2c3.2 3.2 6.4 6.4 6.4 12.8v595.2c0 6.4-3.2 12.8-9.6 12.8-140.8 73.6-291.2 76.8-438.4 3.2-137.6 73.6-288 70.4-432-3.2-6.4-3.2-9.6-9.6-9.6-12.8v-595.2c0-6.4 3.2-9.6 6.4-12.8s9.6-3.2 16-3.2zM800 809.6c19.2-3.2 38.4-9.6 57.6-16v-83.2l-16 16c-6.4 6.4-16 6.4-22.4 0l-19.2-19.2v102.4zM528 764.8c80 38.4 160 54.4 240 48 0 0 0 0 0-3.2v-137.6c0-6.4 3.2-12.8 9.6-16s12.8-3.2 16 3.2l38.4 32 32-32c3.2-3.2 6.4-3.2 12.8-3.2 3.2 0 3.2 0 6.4 0 6.4 3.2 9.6 9.6 9.6 16v108.8c9.6-3.2 19.2-9.6 32-12.8v-560c-128 44.8-256 44.8-393.6 0v556.8zM102.4 764.8c131.2 67.2 268.8 67.2 393.6 3.2v-560c-128 44.8-256 44.8-393.6 0v556.8zM1008 758.4c-9.6 0-16-6.4-16-16v-598.4c-252.8 57.6-345.6 57.6-435.2 0h-92.8c-89.6 54.4-182.4 54.4-435.2 0v598.4c0 9.6-6.4 16-16 16s-12.8-6.4-12.8-16v-617.6c0-6.4 3.2-9.6 6.4-12.8s6.4-3.2 9.6-3.2c0 0 3.2 0 3.2 0 262.4 60.8 348.8 60.8 432 6.4 0 0 6.4-3.2 9.6-3.2 0 0 99.2 0 99.2 0 6.4 0 9.6 3.2 9.6 3.2 83.2 54.4 172.8 51.2 432-6.4 0 0 3.2 0 3.2 0 3.2 0 6.4 0 9.6 3.2s6.4 6.4 6.4 12.8v617.6c3.2 9.6-3.2 16-12.8 16z" />
<glyph unicode="&#xe925;" glyph-name="oeffnungszeiten" d="M512 960c-281.6 0-512-230.4-512-512s230.4-512 512-512 512 230.4 512 512-230.4 512-512 512zM512-32c-265.6 0-480 214.4-480 480s214.4 480 480 480 480-214.4 480-480c0-265.6-214.4-480-480-480zM528 796.8h-32v-355.2l201.6-192 22.4 25.6-192 179.2z" />
<glyph unicode="&#xe926;" glyph-name="auszeichnungen" d="M979.2 825.6c-25.6 38.4-70.4 64-124.8 67.2v67.2h-672v-67.2c-54.4-3.2-99.2-28.8-124.8-67.2-32-48-32-115.2 0-182.4s99.2-108.8 153.6-134.4c16-6.4 32-12.8 48-19.2 38.4-80 89.6-144 150.4-179.2 41.6-25.6 60.8-67.2 60.8-137.6v-19.2h-118.4c-12.8 0-25.6-6.4-35.2-16-6.4-9.6-12.8-19.2-12.8-32h-54.4c-19.2 0-32-16-32-32v-105.6c0-19.2 16-32 32-32h553.6c19.2 0 32 16 32 32v102.4c0 19.2-16 32-32 32h-76.8c-3.2 12.8-6.4 25.6-12.8 32-9.6 9.6-22.4 16-35.2 16h-112v19.2c0 70.4 19.2 115.2 60.8 137.6 60.8 35.2 112 99.2 150.4 179.2 16 6.4 35.2 12.8 51.2 19.2 51.2 25.6 121.6 67.2 153.6 134.4 28.8 70.4 28.8 134.4-3.2 185.6zM224 537.6c-48 22.4-108.8 60.8-137.6 118.4-25.6 57.6-25.6 112-3.2 150.4 19.2 32 54.4 48 96 51.2v-12.8c0-115.2 22.4-224 57.6-316.8-3.2 6.4-9.6 6.4-12.8 9.6zM803.2 70.4v-102.4h-556.8v102.4c0 0 0 0 0 0h556.8zM678.4 121.6c6.4 0 9.6-3.2 9.6-6.4 3.2-3.2 3.2-6.4 6.4-12.8h-361.6c0 6.4 3.2 9.6 6.4 12.8s6.4 6.4 9.6 6.4h329.6zM611.2 339.2c-51.2-28.8-76.8-83.2-76.8-166.4v-19.2h-35.2v19.2c0 83.2-25.6 137.6-76.8 166.4-124.8 73.6-211.2 278.4-211.2 508.8v80h608v-80c3.2-230.4-83.2-435.2-208-508.8zM950.4 656c-25.6-57.6-89.6-96-137.6-118.4-6.4-3.2-12.8-6.4-19.2-6.4 35.2 92.8 57.6 201.6 57.6 316.8v12.8c44.8-3.2 80-22.4 99.2-51.2 25.6-41.6 25.6-96 0-153.6z" />
<glyph unicode="&#xe927;" glyph-name="transfer-puzzle" d="M713.6 150.4h32c0 38.4-25.6 76.8-51.2 96l-19.2-25.6c19.2-12.8 38.4-41.6 38.4-70.4zM1008 259.2v294.4l-22.4-9.6c-25.6-9.6-57.6 0-76.8 19.2-12.8 16-16 38.4-9.6 57.6 6.4 22.4 22.4 38.4 41.6 44.8 16 3.2 32 3.2 44.8 0l22.4-9.6v172.8c0 28.8-22.4 51.2-51.2 51.2h-105.6c-9.6 44.8-48 80-96 80s-86.4-35.2-96-80h-291.2c-9.6 44.8-48 80-96 80s-86.4-35.2-96-80h-112c-28.8 0-51.2-22.4-51.2-51.2v-172.8l22.4 9.6c12.8 6.4 28.8 6.4 44.8 0 19.2-6.4 38.4-22.4 41.6-44.8 6.4-19.2 0-41.6-9.6-57.6-19.2-22.4-51.2-32-76.8-19.2l-22.4 9.6v-294.4c0-3.2 0-96 57.6-169.6-3.2-3.2-6.4-9.6-6.4-16v-140.8h313.6v140.8c0 6.4 0 12.8-6.4 16 38.4 83.2 41.6 166.4 41.6 169.6v73.6h195.2v-76.8c0-3.2 3.2-83.2 41.6-166.4-3.2-3.2-6.4-9.6-6.4-16v-140.8h313.6v140.8c0 6.4 0 9.6-6.4 16 60.8 73.6 57.6 163.2 57.6 169.6zM348.8-32h-249.6v102.4h249.6v-102.4zM384 297.6v-35.2s0-83.2-38.4-160h-240c-60.8 64-60.8 156.8-60.8 156.8v137.6c28.8 0 28.8-28.8 28.8-32v-86.4c0-25.6 22.4-48 48-48s48 22.4 48 48v201.6c0 9.6 6.4 16 16 16s16-6.4 16-16v-185.6s32 0 32 0v0 230.4c0 9.6 6.4 16 16 16s16-6.4 16-16v-230.4h32s0 188.8 0 188.8c0 9.6 6.4 16 16 16v0c3.2 0 6.4 0 9.6-3.2 0 0 3.2-6.4 3.2-9.6v-185.6s32 0 32 0v0s0 0 0 0v121.6c0 9.6 6.4 16 16 16s16-6.4 16-16v-121.6zM137.6 297.6v-16c0-9.6-6.4-16-16-16s-16 6.4-16 16v54.4h28.8v-38.4zM483.2 368h-70.4v48c0 25.6-19.2 48-44.8 48s-9.6 0-16 0v22.4c0 12.8-3.2 25.6-12.8 32-9.6 9.6-19.2 12.8-32 12.8v0c-6.4 0-9.6 0-16 0 0 25.6-22.4 44.8-48 44.8s-44.8-19.2-48-44.8c-3.2 0-9.6 0-16 0-25.6 0-48-22.4-48-48v-115.2h-28.8c0 25.6-16 60.8-60.8 60.8v76.8c35.2-6.4 70.4 9.6 92.8 35.2 19.2 25.6 25.6 54.4 16 86.4s-35.2 57.6-64 67.2c-16 3.2-28.8 6.4-44.8 0v128c0 9.6 9.6 19.2 19.2 19.2h140.8v16c0 35.2 28.8 64 64 64s64-28.8 64-64v-16h156.8v-147.2c-12.8 0-28.8 0-44.8 0-32-9.6-57.6-35.2-64-67.2-6.4-28.8 0-60.8 16-86.4 22.4-28.8 57.6-41.6 92.8-35.2v-140.8h-12.8zM505.6 544c-25.6-9.6-57.6 0-76.8 19.2-12.8 16-16 38.4-9.6 57.6 6.4 22.4 22.4 38.4 41.6 44.8 16 3.2 32 3.2 44.8 0l22.4-9.6v192h163.2v16c0 35.2 28.8 64 64 64s64-28.8 64-64v-16h137.6c9.6 0 19.2-9.6 19.2-19.2v-128c-12.8 0-28.8 0-44.8 0-32-9.6-57.6-35.2-64-67.2-6.4-28.8 0-60.8 16-86.4 22.4-28.8 57.6-41.6 92.8-35.2v-76.8c-44.8 0-60.8-38.4-60.8-60.8h-387.2v185.6l-22.4-9.6zM915.2 320s0-25.6-12.8-41.6c-12.8 16-16 41.6-16 57.6h32v-16zM860.8 297.6h-35.2v38.4h28.8c0-9.6 0-22.4 6.4-38.4zM726.4 336v-38.4h-28.8v38.4h28.8zM758.4 336h32v-38.4h-32v38.4zM640 336h25.6v-70.4h208c0 0 0-3.2 3.2-6.4-22.4-22.4-22.4-57.6-22.4-60.8h32c0 9.6 3.2 35.2 19.2 44.8 48 22.4 41.6 76.8 41.6 76.8v44.8s0 32 28.8 32v-140.8s0-89.6-57.6-156.8h-240c-35.2 76.8-38.4 156.8-38.4 156.8v76.8zM924.8-32h-249.6v102.4h249.6v-102.4z" />
<glyph unicode="&#xe928;" glyph-name="transfer-arrow" d="M720 89.6c0 0-3.2 0-6.4 0-6.4 0-9.6 9.6-9.6 16v105.6h-403.2c-9.6 0-16 6.4-16 16s6.4 16 16 16h419.2c9.6 0 16-6.4 16-16v-86.4l246.4 198.4-246.4 198.4v-96c0-3.2 0-9.6-3.2-12.8 0 0-9.6-6.4-12.8-3.2h-400s0-102.4 0-102.4c0-6.4-3.2-12.8-9.6-16-6.4 0-12.8 0-16 0l-288 236.8c-3.2 0-6.4 6.4-6.4 12.8s0 9.6 6.4 12.8l288 233.6c3.2 3.2 12.8 3.2 16 0 6.4 0 9.6-9.6 9.6-16v-115.2h403.2q0 0 0 0c9.6 0 16-6.4 16-16s-6.4-16-16-16h-419.2c0 0 0 0 0 0-3.2 0-9.6 0-12.8 3.2 0 0-3.2 6.4-3.2 12.8v96l-246.4-195.2 246.4-201.6v86.4c0 3.2 0 9.6 3.2 12.8 0 0 6.4 3.2 12.8 3.2h400s0 112 0 112c0 6.4 3.2 12.8 9.6 16 6.4 0 12.8 0 16 0l288-233.6c3.2 0 6.4-6.4 6.4-12.8s0-9.6-6.4-12.8l-288-233.6c0 0-6.4-3.2-9.6-3.2z" />
</font>
</defs>
</svg>
